ffmpeg系列-解决ffmpeg获取aac音频文件duration不准

时间: 2023-10-17 19:27:16 浏览: 50
您好!对于解决FFmpeg获取AAC音频文件duration不准确的问题,可以尝试以下几个方法: 1. 使用FFprobe进行音频文件信息获取:FFprobe是FFmpeg的一个附属工具,可以用来获取音视频文件的详细信息。通过使用FFprobe获取AAC音频文件的duration信息,可能会比直接使用FFmpeg更准确。您可以通过命令行执行以下命令:`ffprobe -i input.aac -show_entries format=duration -v quiet -of csv="p=0"` 2. 检查音频文件的元数据:有时候,AAC音频文件的duration信息可能与实际不符合是因为文件的元数据有误。您可以使用FFprobe或其他音频文件分析工具,检查音频文件的元数据信息,并确保其与实际时长一致。 3. 更新FFmpeg版本:如果您使用的是旧版本的FFmpeg,可能会存在一些bug或问题,导致获取AAC音频文件duration不准确。建议您尝试更新到最新版本的FFmpeg,并重新测试。 4. 使用其他工具进行验证:如果仍然无法解决问题,可以尝试使用其他音频处理工具或库来获取AAC音频文件的duration信息,比如使用Python的音频处理库pydub等。 希望以上方法可以帮助您解决问题!如有任何疑问,请随时向我提问。
相关问题

ffmpeg录像没有Duration

你好!关于您提到的问题,如果使用FFmpeg录像时没有显示Duration(持续时间),可能是由于几种原因导致的。以下是一些可能的解决方案: 1. 确认输入文件是否完整:确保您的输入文件是完整的,没有任何损坏或缺失的部分。您可以尝试使用其他播放器或媒体工具来验证文件是否正常播放。 2. 更新FFmpeg版本:如果您使用的是较旧的FFmpeg版本,可能会遇到某些问题。尝试更新到最新版本,以确保您使用的是最新的功能和修复了可能存在的问题。 3. 检查媒体文件的元数据:使用FFmpeg的"-i"选项来检查媒体文件的元数据信息。在终端中运行以下命令可以获取详细信息: ffmpeg -i your_video_file 这将显示与输入文件相关的详细信息,包括持续时间。如果在此输出中没有看到Duration字段,可能是因为输入文件本身没有正确的元数据。 4. 尝试重新编码文件:如果您确定输入文件完整且元数据正确,但仍然无法显示持续时间,可以尝试将文件重新编码为另一种格式。使用以下命令将文件重新编码为MP4格式: ffmpeg -i input_file.avi -c:v libx264 -c:a aac output_file.mp4 这将使用H.264视频编解码器和AAC音频编解码器将文件重新编码为MP4格式。重新编码后的文件可能会恢复丢失的元数据信息。 请注意,这些解决方案可能因您的具体情况而有所不同。如果问题仍然存在,请提供更多详细信息,以便我们能够更好地帮助您解决问题。

ffmpeg 查看音频轨道时长

要查看音频轨道时长,可以使用以下命令: ``` ffmpeg -i input.mp4 -map 0:a -c copy -f null - ``` 其中: - `-i input.mp4`:指定输入文件为 `input.mp4`。 - `-map 0:a`:只选择第一个输入文件中的音频流。 - `-c copy`:选择音频编码为原始编码,不进行转码。 - `-f null`:指定输出格式为 null,即不输出实际的媒体文件。 - `-`:表示输出到标准输出。 执行该命令后,会输出类似以下的信息: ``` ... [aac @ 0x7f9f9a023000] Qavg: 229.926 Last message repeated 1 times [aac @ 0x7f9f9a023000] 2 frames left in the queue on closing Input #0, mov,mp4,m4a,3gp,3g2,mj2, from 'input.mp4': Metadata: major_brand : mp42 minor_version : 1 compatible_brands: mp41mp42isom creation_time : 2021-08-18T13:55:41.000000Z com.android.version: 12 Duration: 00:00:10.07, start: 0.000000, bitrate: 1502 kb/s Stream #0:0(und): Video: h264 (Baseline) (avc1 / 0x31637661), yuv420p(tv, bt709), 1280x720, 1375 kb/s, SAR 1:1 DAR 16:9, 29.97 fps, 29.97 tbr, 90k tbn, 180k tbc (default) Metadata: creation_time : 2021-08-18T13:55:41.000000Z handler_name : VideoHandle encoder : AVC Coding Stream #0:1(und): Audio: aac (LC) (mp4a / 0x6134706D), 44100 Hz, stereo, fltp, 123 kb/s (default) Metadata: creation_time : 2021-08-18T13:55:41.000000Z handler_name : SoundHandle ... ``` 其中,`Duration` 行的信息即为音频轨道的时长。例如上述输出中,音频轨道时长为 `00:00:10.07`。

相关推荐

最新推荐

recommend-type

QT5开发及实例配套源代码.zip

QT5开发及实例配套[源代码],Qt是诺基亚公司的C++可视化开发平台,本书以Qt 5作为平台,每个章节在简单介绍开发环境的基础上,用一个小实例,介绍Qt 5应用程序开发各个方面,然后系统介绍Qt 5应用程序的开发技术,一般均通过实例介绍和讲解内容。最后通过三个大实例,系统介绍Qt 5综合应用开发。光盘中包含本书教学课件和书中所有实例源代码及其相关文件。通过学习本书,结合实例上机练习,一般能够在比较短的时间内掌握Qt 5应用技术。本书既可作为Qt 5的学习和参考用书,也可作为大学教材或Qt 5培训用书。
recommend-type

grpcio-1.46.3-cp37-cp37m-musllinux_1_1_i686.whl

Python库是一组预先编写的代码模块,旨在帮助开发者实现特定的编程任务,无需从零开始编写代码。这些库可以包括各种功能,如数学运算、文件操作、数据分析和网络编程等。Python社区提供了大量的第三方库,如NumPy、Pandas和Requests,极大地丰富了Python的应用领域,从数据科学到Web开发。Python库的丰富性是Python成为最受欢迎的编程语言之一的关键原因之一。这些库不仅为初学者提供了快速入门的途径,而且为经验丰富的开发者提供了强大的工具,以高效率、高质量地完成复杂任务。例如,Matplotlib和Seaborn库在数据可视化领域内非常受欢迎,它们提供了广泛的工具和技术,可以创建高度定制化的图表和图形,帮助数据科学家和分析师在数据探索和结果展示中更有效地传达信息。
recommend-type

大学生毕业答辨ppt免费模板【不要积分】下载可编辑可用(138).zip

大学生毕业答辨ppt免费模板【不要积分】下载可编辑可用(138).zip
recommend-type

Eclipse的C/C++自动补全插件org.eclipse.cdt.ui-7.3.100.202111091601

Eclipse的C/C++自动补全插件,制作参考:https://blog.csdn.net/kingfox/article/details/104121203?spm=1001.2101.3001.6650.1&utm_medium=distribute.pc_relevant.none-task-blog-2~default~BlogCommendFromBaidu~Rate-1-104121203-blog-117118786.235%5Ev43%5Epc_blog_bottom_relevance_base1&depth_1-utm_source=distribute.pc_relevant.none-task-blog-2~default~BlogCommendFromBaidu~Rate-1-104121203-blog-117118786.235%5Ev43%5Epc_blog_bottom_relevance_base1&utm_relevant_index=2
recommend-type

大学生毕业答辨ppt免费模板【不要积分】下载可编辑可用(137).zip

大学生毕业答辨ppt免费模板【不要积分】下载可编辑可用(137).zip
recommend-type

zigbee-cluster-library-specification

最新的zigbee-cluster-library-specification说明文档。
recommend-type

管理建模和仿真的文件

管理Boualem Benatallah引用此版本:布阿利姆·贝纳塔拉。管理建模和仿真。约瑟夫-傅立叶大学-格勒诺布尔第一大学,1996年。法语。NNT:电话:00345357HAL ID:电话:00345357https://theses.hal.science/tel-003453572008年12月9日提交HAL是一个多学科的开放存取档案馆,用于存放和传播科学研究论文,无论它们是否被公开。论文可以来自法国或国外的教学和研究机构,也可以来自公共或私人研究中心。L’archive ouverte pluridisciplinaire
recommend-type

MATLAB柱状图在信号处理中的应用:可视化信号特征和频谱分析

![matlab画柱状图](https://img-blog.csdnimg.cn/3f32348f1c9c4481a6f5931993732f97.png) # 1. MATLAB柱状图概述** MATLAB柱状图是一种图形化工具,用于可视化数据中不同类别或组的分布情况。它通过绘制垂直条形来表示每个类别或组中的数据值。柱状图在信号处理中广泛用于可视化信号特征和进行频谱分析。 柱状图的优点在于其简单易懂,能够直观地展示数据分布。在信号处理中,柱状图可以帮助工程师识别信号中的模式、趋势和异常情况,从而为信号分析和处理提供有价值的见解。 # 2. 柱状图在信号处理中的应用 柱状图在信号处理
recommend-type

用Spring boot和vue写一个登录注册界面

好的,这是一个比较常见的技术问题,我可以为您提供一些参考资料和思路。首先,您可以使用Spring Boot作为后端框架来处理用户认证和注册的逻辑,比如使用Spring Security实现用户登录认证。同时,您还需要设计相应的数据模型和数据库表结构来存储用户信息。在前端方面,您可以使用Vue.js作为框架来构建登录注册页面,使用Axios来发起API请求并和后端进行交互。当然,在实现过程中,还需要考虑一些具体细节,比如数据校验、安全性和用户体验等方面。希望这些信息能够帮助到您。
recommend-type

JSBSim Reference Manual

JSBSim参考手册,其中包含JSBSim简介,JSBSim配置文件xml的编写语法,编程手册以及一些应用实例等。其中有部分内容还没有写完,估计有生之年很难看到完整版了,但是内容还是很有参考价值的。